#TITLE:Stop Girl;
#SUBTITLE:Expi3nze;
#ARTIST:U-Kiss;
#TITLETRANSLIT:;
#SUBTITLETRANSLIT:;
#ARTISTTRANSLIT:;
#CREDIT:;
#BANNER:bn.png;
#BACKGROUND:bg.png;
#LYRICSPATH:;
#CDTITLE:cdtitle.png;
#MUSIC:Stop Girl.mp3;
#OFFSET:-0.260;
#SAMPLESTART:100.000;
#SAMPLELENGTH:12.000;
#SELECTABLE:YES;
#BPMS:0.000=98.000,101.000=49.000,101.333=196.000,102.000=98.000,108.500=49.000,108.667=196.000,109.000=98.000,117.000=196.000,117.500=49.000,117.750=98.000,133.000=49.000,133.333=196.000,134.000=98.000,149.000=49.000,149.333=196.000,150.000=98.000,165.000=49.000,165.333=196.000,166.000=98.000,181.000=196.000,181.500=49.000,181.750=98.000,197.000=49.000,197.333=196.000,198.000=98.000,204.500=49.000,204.667=196.000,205.000=98.000,213.000=196.000,213.500=49.000,213.750=98.000,228.000=49.000,228.167=196.000,228.500=98.000,230.000=49.000,230.333=196.000,231.000=98.000;
#STOPS:;
#BGCHANGES:;
// cache tags:
#FIRSTBEAT:2.000;
#LASTBEAT:235.000;
#SONGFILENAME:Songs/Expi3nze 4th Collection/Stop Girl (U-Kiss)/Stop Girl.sm;
#HASMUSIC:1;
#HASBANNER:1;
#MUSICLENGTH:148.675;
// end cache tags

//---------------dance-single - ----------------
#NOTES:
     dance-single:
     :
     Hard:
     15:
     0.777,0.810,1.000,0.262,0.508,568.000,195.000,39.000,0.000,31.000:
0000
0000
2000
0000
,
0000
0000
3011
0000
0010
1100
0001
1100
,
1100
0001
1010
0000
1010
1000
0001
1100
,
1100
0001
0011
1000
1001
0101
0001
1100
,
1100
0001
1100
0000
0010
0101
0010
0101
,
0101
0010
1100
0001
1000
1001
1000
0011
,
0011
1000
1001
0010
1100
1100
0001
1010
,
1010
0010
0101
0010
1100
1100
0001
1010
,
1010
0000
0000
0000
0001
0000
0000
0000
1000
0000
1000
0000
1000
0000
0010
0100
1000
0000
0010
0000
0010
0000
0010
0000
1010
0000
1000
0000
1000
0000
0001
0010
,
0100
0001
0001
0001
1100
0000
0001
0000
1100
0000
1001
0000
0010
0000
1100
0000
,
1100
0001
0101
0010
0101
0101
1000
0101
,
0101
0010
0101
1000
0011
0011
1000
1001
,
0010
0100
1001
0001
1100
1100
0001
1100
,
1100
0001
0011
1000
1001
1001
1000
0011
,
0011
0100
1010
0100
1010
1010
0100
0011
,
0011
1000
1010
0100
1010
1010
1000
0011
,
0011
0000
0000
0000
1000
0000
0000
0000
0010
0000
0010
0000
0010
0000
0001
0010
0100
0000
0010
0000
0010
0000
0010
0000
0010
0000
0010
0000
0010
0000
0001
0010
,
0100
0010
0010
0010
0010
0000
0010
0000
1010
0000
1000
1000
0000
1010
0000
1010
,
0001
0000
1000
0000
0010
0000
1000
0000
1010
0000
0010
1000
0000
0011
0000
1000
,
0011
0000
1000
0000
0010
0000
0010
0000
0101
0000
0101
1000
0000
0010
0101
0000
,
0201
0000
0002
0000
2300
0000
0203
0000
3320
0000
2001
0001
0030
0001
0000
0001
,
3001
0000
1000
0010
1100
0000
1000
0000
0011
0000
1000
1000
0000
1000
0000
0100
,
1001
0000
0100
0000
1000
0000
0001
0000
0011
0000
1000
0011
0000
1000
0000
0001
,
1010
0000
1000
0000
0001
0000
1000
0000
0011
0000
1000
1000
0011
0100
1000
0000
,
1010
0000
0000
0000
1010
0000
0000
0000
1000
0000
1000
0000
1000
0000
1000
0100
1000
0000
1000
0000
1000
0000
1000
0000
1000
0000
1000
0000
1000
0000
1000
0100
,
1022
1000
1000
1000
2033
0000
0000
0000
3111
0000
1000
0010
1100
0001
0010
0000
,
0101
0000
0101
0000
0102
0000
0000
0000
0100
0000
1000
0010
1103
0001
0010
0000
,
1100
0000
0001
0010
0100
0000
0010
0000
0020
0000
1000
1000
0130
1000
0010
0000
,
1010
0000
1010
0000
2010
0000
0000
0000
0010
0000
0001
0100
3011
1000
0100
0000
,
0011
0000
1000
0001
1110
0000
0000
0000
2010
0000
0010
0001
3010
0100
1000
0000
,
0011
0000
0011
0000
0012
0000
0000
0000
1010
0000
1000
1000
0013
1000
0010
0000
,
0101
0000
0101
0000
0010
0000
1000
0000
1100
0000
0010
0100
1001
0010
0100
0000
,
1010
0000
0000
0000
1010
0000
0000
0000
2010
0000
0010
0000
0010
0000
0010
0001
0010
0000
0010
0000
0010
0000
0010
0000
0010
0000
0010
0000
0010
0000
0010
0001
,
0010
0010
0010
0010
3010
0000
0000
0000
1100
0000
1100
0001
0010
0000
0101
0000
,
0101
0000
0010
0000
0101
0000
1000
0010
1100
0000
0011
0100
0000
0010
0101
1000
,
0101
0000
1000
0000
0011
0000
1000
0010
0100
1000
0011
0100
0001
1000
0100
0000
,
1001
0000
1000
0000
0011
1000
0100
0010
1001
0100
1001
0010
0100
1000
0011
0000
,
0011
0000
1000
0000
0010
0000
0000
0000
1010
0000
1010
0001
1000
0000
0011
1000
,
0011
0100
1000
0000
0011
1000
0100
0010
1001
0100
1010
0001
0010
0100
1001
0010
,
1100
0010
0001
0000
1100
0010
0001
0000
1100
0010
1001
0100
1000
0010
1100
0001
,
1010
0000
0100
0000
1000
0000
0000
0000
0010
0000
0010
0000
0010
0000
0100
0010
0001
0000
0010
0000
0010
0000
0010
0000
0010
0000
0010
0000
0010
0000
0100
0010
,
0001
0010
0010
0010
2010
0000
0000
0000
3111
0000
1000
0010
1100
0001
0010
0000
,
0101
0000
0101
0000
0102
0000
0000
0000
0100
0000
1000
0010
1103
0001
0010
0000
,
1100
0000
0001
0010
0100
0000
0010
0000
0020
0000
1000
1000
0130
1000
0010
0000
,
1010
0000
1010
0000
2010
0000
0000
0000
0010
0000
0001
0100
3011
1000
0100
0000
,
0011
0000
1000
0001
1110
0000
0000
0000
2010
0000
0010
0001
3010
0100
1000
0000
,
0011
0000
0011
0000
0012
0000
0000
0000
1010
0000
1000
1000
0013
1000
0010
0000
,
0101
0000
0101
0000
0010
0000
1000
0000
1100
0000
0010
0100
1001
0010
0100
0000
,
1010
1010
2020
0000
0000
0000
0000
0000
,
0000
0000
0000
0000
3230
0000
0000
0000
1311
0000
1000
0010
1100
0001
0010
0000
,
0101
0000
0101
0000
0102
0000
0000
0000
0100
0000
1000
0010
1103
0001
0010
0000
,
1100
0000
0001
0010
0100
0000
0010
0000
0020
0000
1000
1000
0130
1000
0010
0000
,
1010
0000
1010
0000
2010
0000
0000
0000
0010
0000
0001
0100
3011
1000
0100
0000
,
0011
0000
1000
0001
1110
0000
0000
0000
2010
0000
0010
0001
3010
0100
1000
0000
,
0011
0000
0011
0000
0012
0000
0000
0000
1010
0000
1000
1000
0013
1000
0010
0000
,
0101
0000
0101
0000
0010
0000
1000
0000
1100
0000
0010
0100
1001
0010
0100
0000
,
1010
0000
1010
0000
2000
0000
0000
0000
0010
0000
0010
0001
0010
0100
0100
0000
,
0001
0000
0100
0001
3100
0000
0000
0000
0220
0000
0000
0000
0332
0000
0200
0000
,
2003
0320
3002
0030
0200
0000
0303
0000
,
0000
0000
0000
0000
,
0000
0000
0000
0000
,
0000
0000
0000
0000
,
0000
0000
0000
0000
,
0000
0000
0000
0000
,
0000
0000
0000
0000
,
0000
0000
0000
0000
;
